Siyah bayrak

Ost_Asilmeydan Siyah Beyaz Göktürk Bayrağı 17 Eski Türk Devletleri ve Türkiye Saten T Direk Masa Bayrağı 2'li 99,90 TL Satürn Masaüstü Siyah Göktürk Bayrağı Türk Bayrağı Ikili Pirinç Direk Masa Bayrak Seti Siyah, beyaz, kırmızı, siyah, kırmızı ve altın, ülke tarihinin farklı noktalarında geleneksel Alman renkleri olarak hizmet vermiştir. Bugün kullanılan yatay üç renkli bayrak, 1778 ...Doğru 22 Lt Siyah Yelken Bayrak Ve Plaj Şemsiyesi Bidonu Doğru 22 Lt Siyah Yelken Bayrak Ve Plaj Şemsiyesi Bidonu . Ürün Ölçüsü: 47cm x 47cm. Delik Çapı Maksimum 3cm İçin Uygundur. Hazne kapasitesi maksimum 22 Lt'dir. Su ve Kum İle Doldurabilirsiniz. Kampanya fiyatından satılmak üzere 50 adetten fazla stok sunulmuştur. Limonata Yelken Bayrakları. Kayıt Ol; Giriş Yap; Şifremi Unuttum; Siparişlerim 0 Ürün - TL SİYAH BAYRAK! - Ali EYCE. MOLOZ ÇEŞME! SİYAH BAYRAK! Yolumuz her yere düşüyor. Yaz kış demeden de her yere gidiyoruz. Bu mevsimde, havalar kapalı iken, soğuk kendini hissediyorken Çeşme'ye herhalde deniz keyfi yapmaya, güneşin tadını çıkarmaya gitmemişizdir. Çeşme'den çok şikâyet gelince, Çeşme'ye gitmek ...Listen to Siyah Bayrak on Spotify. No.1 · Album · 2017 · 11 songs. Yelken Bayrağı Siyah Bidon 22 litre Plaj Bayrağı Bidonu Ürün Garantisi veya Ömrü: Kullanm ve Hava Şartlarından Etkilendiği İçin Hiçbir Garantisi Yoktur Yelken Bayrağı Siyah Bidon İndirim 75x200 Olta Bayrak (Yelken Bayrak) Yükseklik 3 metre Boyu İndirim 75x250 Olta Bayrak (Yelken Bayrak) Yükseklik 3,5 metre Boyu İndirimJan 02, 2010 · sİyah bayrak ayna (amİr) 27-05-2021 ankara tahmİnİ 26 Mayıs 2021 27 Mayıs 2021 admin 28-01-2021 DENİZ ALKIN ŞANLIURFA ALTILI GANYAN TAHMİNLERİ Siyah rengin psikolojisine göre, kişinin kendisi ve dış dünya arasında bir bariyer yaratır, duygularını ve hislerini korurken rahatlık sağlar, kırılganlıkları ve kendine güvensizliğini gizler. Siyah renk, ışığın yokluğunda ortaya çıkar ve renkleri absorbe edip emer. Biz buna "karanlık" diye bir isim veriyoruz ...Mısır bayrağı, Mısır tarafından kullanılan bayrak. Üç renkli olan bayrak; kırmızı, beyaz ve siyah renklerden oluşan yatay üç şeritten oluşmaktadır. Bayrağın beyaz şeridinde Mısır arması yer almaktadır. Bayrağın şu andaki hâli 4 Ekim 1984'te kabul edilmiştir. Mısır ile ilgili bu madde taslak seviyesindedir ...Siyah Bayrak: No.1: Digital Media: 11: TR 2017-12-11; CritiqueBrainz Reviews No one has reviewed this release group yet. Be the first to write a review. Release group ... While listening to Siyah Bayrak song online, amplify your emotions through lyrics of the song. There are also options to choose your favorite artist No.1 , No1 , Can Bozok songs on Wynk. Download Mp3 Songs from all genres seamlessly with Wynk. iStock'taki Siyah Bayrak stok fotoğraf ve royalty-free görselleri keşfedin. Başka bir yerde bulamayacağınız yüksek kaliteli stok fotoğrafları bulun.Siyah Bayrak Sansür Dog Killa, Sativa, Ritalin, Lyrica Şükredersin dicka, dinlerken Nie Wieder Arabada sopa, şoförüm Donatella Çocuklar gezer gece mahallede real belaBayrak direği yapımdan. Yangın tesisatlarında ve yangın merdiveni yapımında. Alt yapı çalışmalarında. Kireçlenme yapmadıklarından içme suyu tesisatlarında. İnşaatlarda, Çevre aydınlatma işlerinde ve elektrik direklerinde. Havalandırma tesisatlarında. Denizcilik alanındaki. Isı değişimine karşı dayanımı nedeni ile ...sİyah bayrak ayna(amİr) 15-08-2020 ankara altili tahmİnİ 14 Ağustos 2020 14 Ağustos 2020 admin GÖKHAN KIRMIZI (SAHANIN KALBİNDEN) 04-02-2020 KOCAELİ ALTILI TAHMİNİEnglish German - Deutsch French - Français Spanish - Español Italian - Italiano Swedish - SvenskaAug 04, 2022 · Siyah bayrak tahmin Siyah bayrak tahmin1 kg zeytin (yeni mahsul olgunlaşmamış eti kalın, çekirdeği küçük, morumsu sert siyah zeytin) gr kalın tuz (kaya tuzu) ml zeytinyağı ml sıkılmış limon suyu gr toz şeker 1 kg zeytine eklenen malzemeleri Gram/ Mililitre (cc) olarak yapmak istemeyenler için ölçü her biri için yarım su ... Siyah+bayrak GittiGidiyor'da! siyah+bayrak modelleri, siyah+bayrak özellikleri ve markaları en uygun fiyatları ile GittiGidiyor'da! -Bu bayrak kırmızı, altın ve siyah renklere sahiptir. Hükümet bayrağı: Bu bayrağı isteyen herkes kullanamaz. Sadece hükümet tarafından kullanılmaya izin vardır ve kullananlar cezaya çarptırılır. Renkleri aynı olup ancak farklı bir arma taşır. Alman savaş bayrağı: Bu bayrak türü federal ve ordu tarafından kullanılır.Knight Online Siyah Türk Bayrağı Sembol 32×32 Şeffaf Clan Simgesini kullanmak icin, öncelikle asağıda bulunan indir butonuna tıklıyoruz. Şeffaf Simgemizi indirdik den sonra adını symbol olarak değiştirip, Knight Online klasörünü acıyoruz ve daha indirmis olduğumuz Şeffaf sembolümüzü sembol_us dosyasına yapıştırıp ...sİyah ayrak ayna (amİr) 05-08-2022 bursa altili tahmİnİ alİ osman efendİoĞlu 05-08-2022 bursa altili tahmİnİ sİyah bayrak ayna (amİr) 05-08-2022 İstanbul altili tahmİnİ sİyah bayrak ayna (amİr) 04-08-2022 kocaelİ altili tahmİnİ oĞuz ayhan 04-08-2022 kocaelİ altili tahmİnİHT MARIN Sealux Işıksız Bayrak Direği Alt.siyah 35cm yorumlarını inceleyin, Trendyol'a özel indirimli fiyata satın alın. Dec 11, 2017 · Listen to Siyah Bayrak by No.1 on Apple Music. Stream songs including "Paranoyak Ve Sinirli Kafa", "Fare İlacı" and more. Jan 02, 2010 · sİyah bayrak ayna (amİr) 27-05-2021 ankara tahmİnİ 26 Mayıs 2021 27 Mayıs 2021 admin 28-01-2021 DENİZ ALKIN ŞANLIURFA ALTILI GANYAN TAHMİNLERİ elektrikli otomobil vergisi Listen to Siyah Bayrak on Spotify. No.1 · Album · 2017 · 11 songs. Siyah, beyaz, kırmızı, siyah, kırmızı ve altın, ülke tarihinin farklı noktalarında geleneksel Alman renkleri olarak hizmet vermiştir. Bugün kullanılan yatay üç renkli bayrak, 1778 ...Listen to Siyah Bayrak on Spotify. No.1 · Album · 2017 · 11 songs. Bu bayrak kırmızı, altın ve siyah renklere sahiptir. Hükümet bayrağı: Bu bayrağı isteyen herkes kullanamaz. Sadece hükümet tarafından kullanılmaya izin vardır ve kullananlar cezaya çarptırılır. Renkleri aynı olup ancak farklı bir arma taşır. Alman savaş bayrağı: Bu bayrak türü federal ve ordu tarafından kullanılır.Almanya bayrağı, Almanya Federal Cumhuriyeti'nin bayrağıdır.Enlemesine 3 eşit parça olan siyah, kırmızı ve altın sarısı renklerden oluşur.. Bayrağı oluşturan renklerin tarihi 1813 yıllarında Napolyon'a karşı verilen savaşta Prusya'nın hem para hem de asker yönünden yaşadığı sıkıntılardan dolayı Lützow önderliğinde çoğunluğu üniversite öğrencilerinden ...Siyah Bayrak şiirini okumak için tıklayın. Hüseyin Balcı 2 tarafından yazılan Siyah Bayrak şiiri ve diğer şair Hüseyin Balcı 2 şiirleri Antoloji.com'da.Bayrak imalat işleminin kullanım yerlerine göre iç ve dış mekanlardan yer almak üzere iki bölümde bulunmaktadır. Koni Kancası Bayrak ModeliKoni Kancası :Ürünlerimizin tamamı iç ortam ve dış ortamlarda kolaylıkla kullanılmaktadır. Ürün çeşitlerimiz mükemmel bir reklam ve tanıtım aracı olarak bulunmaktadır. Listen to Siyah Bayrak on Spotify. No.1 · Album · 2017 · 11 songs. 600x900--6-Metreye--9-Metre - 1.700,00 TL. Siyah Beyaz Damalı Bayrak Bayrak / Tekkat Raşel Kumaş. Beyaz Uçkurluk / Asmak için Kulpları Mevcuttur. Bayrak Dijital Baskı Tekniği / Kenarlar Çift Dikiş. Siyah Beyaz Damalı Arkadan Ters Gözükmektedir. Bayrak Dış Mekan Akmaz Yıkanabilir Raşel Kumaş 135 gr. Ürün Ambalaj ...Dec 11, 2017 · Listen to Siyah Bayrak by No.1 on Apple Music. Stream songs including "Paranoyak Ve Sinirli Kafa", "Fare İlacı" and more. Bayrak imalat işleminin kullanım yerlerine göre iç ve dış mekanlardan yer almak üzere iki bölümde bulunmaktadır. Koni Kancası Bayrak ModeliKoni Kancası :Ürünlerimizin tamamı iç ortam ve dış ortamlarda kolaylıkla kullanılmaktadır. Ürün çeşitlerimiz mükemmel bir reklam ve tanıtım aracı olarak bulunmaktadır. rehberinde kayitli olmadigim kisinin cevrimici oldugunu gorebilir miyim While listening to Siyah Bayrak song online, amplify your emotions through lyrics of the song. There are also options to choose your favorite artist No.1 , No1 , Can Bozok songs on Wynk. Download Mp3 Songs from all genres seamlessly with Wynk. Siyah Bayrak ürünlerinin en ucuz fiyatlı satış mağazalarını Cimri.com'da bul, Siyah Bayrak ürün yorumlarını incele, en uygun Siyah Bayrak fiyatını kaçırma! ... Roborock S5 Max Siyah Akıllı Navigasyonlu Robot Süpürge ve Islak Paspas. 6.599,00 TL. Xiaomi Redmi 8 64GB 4GB Ram 6.22 inç 12MP Akıllı Cep Telefonu.Birbirinden güzel siyah arkaplanlı HD resimler burada. En güzel siyah arkaplanlı resim galerisi burada umarım beğenirsiniz. Burada paylaştığımız resimler 2012'nin en yeni karanlık siyah arkaplan resimleridir. Resimleri indirmek için resimin üzerinde sağ tıklayıp ( Resmi Farklı Kaydet ) seçeneğine tıklayıp kaydediyoruz.SİYAH BAYRAK AYNA (AMİR) 05-08-2022 İSTANBUL ALTILI TAHMİNİ. 4 Ağustos 2022 admin. DOLYA VOROVSKAYA Gücünün kesinlikle bence sınırları yok. Koşmuş olduğu yarışlarında daha hala kendisini tam bulmuş değil. Her geçen gün kendisini. Devam. ANA SAYFA TAHMİNLER.Söz: No.1 & Melek MossoMüzik: No.1Spotify: https://open.spotify.com/album/1KF29eJMyRaOXcalVkN2UBApple Music: https://itunes.apple.com/tr/album/siyah-bayrak/1...SİYAH BAYRAK! - Ali EYCE. MOLOZ ÇEŞME! SİYAH BAYRAK! Yolumuz her yere düşüyor. Yaz kış demeden de her yere gidiyoruz. Bu mevsimde, havalar kapalı iken, soğuk kendini hissediyorken Çeşme'ye herhalde deniz keyfi yapmaya, güneşin tadını çıkarmaya gitmemişizdir. Çeşme'den çok şikâyet gelince, Çeşme'ye gitmek ...Siyah bayrak tahmin Siyah beyaz şal Xece herdem kimdir Album Kim Biliyor, Xece Herdem Qobuz: download and Discover more music, concerts, videos, and pictures with the largest catalogue online at website 10/12/ · Listen free to No.1 - Siyah Bayrak (Paranoyak Ve Sinirli Kafa, Fare İlacı and more). 11 tracks (). ...← sİyah bayrak ayna (amİr) 04-08-2022 kocaelİ altili tahmİnİ Bunları da sevebilirsiniz SİYAH BAYRAK AYNA (AMİR) GULFSTREAM PARK 26-03-2020 GÜNÜN ÇİFTESİNo.1'in Kron1k albümünün ikinci şarkısı Siyah Bayrak sizlerle. No.1 - Siyah Bayrak şarkı sözlerleri:SansürDogg killa sativa ritalin lyrcaŞükredersin dickkaa ... Siyah Bayrak haberleri, bugüne ait güncel son dakika gelişmeleri için tıklayın! Siyah Bayrak ile ilgili tüm, video, fotoğraf, infografik ve flaş haberler GZT’de. Şimdi hayatının üçüncü yarışında oldukça müsait bir grupta koşacak. Tek korkum ise kulvarı. Umarım Erhan iyi start alıp hemen yerini alır. Bunu da başaracak yetenekte bir çocuk. Atta zaten biraz ayağına serilik yapabilecek bir at. Demem o ki YALI EFESİ 'ne ben sığınıyorum. Yoksa burda çarşı pazar karışır.Mısır bayrağı, Mısır tarafından kullanılan bayrak. Üç renkli olan bayrak; kırmızı, beyaz ve siyah renklerden oluşan yatay üç şeritten oluşmaktadır. Bayrağın beyaz şeridinde Mısır arması yer almaktadır. Bayrağın şu andaki hâli 4 Ekim 1984'te kabul edilmiştir. Mısır ile ilgili bu madde taslak seviyesindedir ...Siyah Bayrak şiirini okumak için tıklayın. Hüseyin Balcı 2 tarafından yazılan Siyah Bayrak şiiri ve diğer şair Hüseyin Balcı 2 şiirleri Antoloji.com'da.siyah bayrak 2022-06-04T12:24:56+03:00 Yayınland ı Yazar: Emine Kılıçaslan, Kategori: Edebiyat > Deneme Aklıma zorum var aklımdan. Zerrelerime işlediğim her acının, yansıması bir silüet taşıyorum. Gülüşe yaydığımız sima, zehrini içime akıtır. Çürütüyor ...Mısır bayrağı, Mısır tarafından kullanılan bayrak. Üç renkli olan bayrak; kırmızı, beyaz ve siyah renklerden oluşan yatay üç şeritten oluşmaktadır. Bayrağın beyaz şeridinde Mısır arması yer almaktadır. Bayrağın şu andaki hâli 4 Ekim 1984'te kabul edilmiştir. Libya bayrağının tarihi 1951-1969 Libya'nın ilk ulusal bayrağı 1951 yılında İtalya'dan bağımsızlığın alınmasının ardından Libya Krallığı'nın bağımsızlık simgesi olarak tasarlanmıştır. Yerel geleneklerden ve Libya'da etkili olan dini Senusiye hareketinden izler taşıyan bu bayrak ortada üzerinde beyaz ay ve yıldız olan siyah yatay bir şerit ve bu şeritin ...SİYAH BAYRAK! - Ali EYCE. MOLOZ ÇEŞME! SİYAH BAYRAK! Yolumuz her yere düşüyor. Yaz kış demeden de her yere gidiyoruz. Bu mevsimde, havalar kapalı iken, soğuk kendini hissediyorken Çeşme'ye herhalde deniz keyfi yapmaya, güneşin tadını çıkarmaya gitmemişizdir. Çeşme'den çok şikâyet gelince, Çeşme'ye gitmek ...1 Siyah Fırtına Joh-Hwan Düşebilecek Silahlar Düşebilecek Zırhlar Diğer Eşyalar Sahte Kıl ıç Kırmızı Göz Yay Bakır İşçiliği Yay Gümüş Kılıç Ejderha Plaka Zırh Zincir Kapşon Anka Şapkası Altın Ayakkabı Altın Bezeli Ayakkabı Altın Anahtar Gümüş Anahtar ...Bayrak imalat işleminin kullanım yerlerine göre iç ve dış mekanlardan yer almak üzere iki bölümde bulunmaktadır. Koni Kancası Bayrak ModeliKoni Kancası :Ürünlerimizin tamamı iç ortam ve dış ortamlarda kolaylıkla kullanılmaktadır. Ürün çeşitlerimiz mükemmel bir reklam ve tanıtım aracı olarak bulunmaktadır. Formula 1 ortası turuncu siyah-bayrak nedir ne anlama gelir? Formula 1 sezonunun 14. yarışının heyecanı Türkiye Grand Prix'sinde yaşanacak. Yarış severler ise, Formula 1'de ortası turuncu siyah-bayrak ne anlama gelir, ortası turuncu siyah-bayrak sallandığı zaman ne olur gibi araştırmalar yapıyor. Yarış heyecanı yarın yaşanacak!BAYRAK. 1980 Yılında Bayrak pazarlaması ile ise başlayan Esen Bayrak, Bayrak-Flama alanında araştırma ve geliştirme yaparak sektörde daima kalite ve yeniliğin öncülüğünü yapmıştır. 1983 Yılında imalata başlayarak kendi ürettiği mamülü kendisi pazarlamıştır. Bayrakçılığı kalite açısından Avrupa ...Filename E:\Torrent Upload\CD Rip\No.1\No.1 - Siyah Bayrak\05 Dünya Gül Bana.wav Peak level 67.7 % Extraction speed 4.0 X Track quality 100.0 % Test CRC C7F5475B Copy CRC C7F5475B Copy OK Track 6 Filename E:\Torrent Upload\CD Rip\No.1\No.1 - Siyah Bayrak\06 Ölüm Çizgisi.wav Peak level 67.0 % Extraction speed 3.6 X Track quality 99.9 % Test ... Siyah Bayrak haberleri, bugüne ait güncel son dakika gelişmeleri için tıklayın! Siyah Bayrak ile ilgili tüm, video, fotoğraf, infografik ve flaş haberler GZT'de.Hiphop ve Türkçe Rap'in kalbinin attığı sözlük.papatyam (@siyah_bayrak_x) on TikTok | 0 Likes. 450 Fans. PAPATYAM🌼 Watch the latest video from papatyam (@siyah_bayrak_x). Bayrak imalat işleminin kullanım yerlerine göre iç ve dış mekanlardan yer almak üzere iki bölümde bulunmaktadır. Koni Kancası Bayrak ModeliKoni Kancası :Ürünlerimizin tamamı iç ortam ve dış ortamlarda kolaylıkla kullanılmaktadır. Ürün çeşitlerimiz mükemmel bir reklam ve tanıtım aracı olarak bulunmaktadır. Rüyada bayrak görmek, Şeref, iyi hal , yücelik ve izzettir. Elinde bayrak taşımak şeref ve makamla, Elindeki bayrağı düşürmek makamını yitir. 30 Temmuz 2022 18:19. ... siyah bayraklar da kitliga isaret eder. Hayrete düsmüs ve ne yapacagini sasirmis bir kimsenin rüyada asker bayragi görmesi, o kimsenin saskinliktan kurtulup ...No.1'in Kron1k albümünün ikinci şarkısı Siyah Bayrak sizlerle. No.1 - Siyah Bayrak şarkı sözlerleri:SansürDogg killa sativa ritalin lyrcaŞükredersin dickkaa ... Siyah Bayrak Lyrics: Siyah Bayrak / Hm, Sansür / Dog Killa, Sativa, Ritalin, Lyrica / Şükredersin dicka, dinlerken Nie Wieder / Arabada sopa, şoförüm Donatella / Çocuklar gezer gece ...1 Siyah Fırtına Joh-Hwan Düşebilecek Silahlar Düşebilecek Zırhlar Diğer Eşyalar Sahte Kıl ıç Kırmızı Göz Yay Bakır İşçiliği Yay Gümüş Kılıç Ejderha Plaka Zırh Zincir Kapşon Anka Şapkası Altın Ayakkabı Altın Bezeli Ayakkabı Altın Anahtar Gümüş Anahtar ...Mavi Siyah Damalı, Mavi Siyah Damalı Yelken Bayrakları, Mavi Siyah Damalı Cadde Bayrak, Mavi Siyah Damalı Yelken Bayrak, Tümünü Gör 96,90 TL 'den başlayan fiyatlar 21.07.2022 Günü Kargoya Verilir Havale / Eft / Kredi Kartı Ödeme 3 D Güvenli Ödeme Kolaylığı Sadece Bayrak - 96,90 TL Bayrak+Demiraksam - 153,00 TLiStock'taki Siyah Bayrak stok video, 4k ve diğer HD çekimleri keşfedin. Başka bir yerde bulamayacağınız harika video çekimleri.Bayrak ürünlerini bayrak.com.tr ile kaliteli çeşitli Türk bayrağı, Plaj, Yelken ve özel yapım bayrakları bayrakçı ile Kolay ve Hızlıca Satın Alabilirsiniz Beko Yelken Bayrak, Bolu Lokanta Dükkan Önü Bayrak, Alfa Romeo Plaj Bayrağı, Romania Dubalı Bayrak, Tarsus İdman Yurdu Çerçeveli Resimler, Dağ İncir Kuşu Yelken Bayrak, Tela Önlük Olta Bayrak, Karadeniz Ereğli ...Söz: No.1 & Melek MossoMüzik: No.1Spotify: https://open.spotify.com/album/1KF29eJMyRaOXcalVkN2UBApple Music: https://itunes.apple.com/tr/album/siyah-bayrak/1...iStock'taki Siyah Bayrak stok fotoğraf ve royalty-free görselleri keşfedin. Başka bir yerde bulamayacağınız yüksek kaliteli stok fotoğrafları bulun.1Araba 1Ev Daewoo Nubira Oto Koltuk Koruyucu Kılıf Araba Araç Servis Kılıfı Siyah Bayrak Baskılı Ön Arka Set. 1Araba 1Ev. 134,90 TL. Satıcı: 1araba1ev. Puan 9,9. Kampanyaları Gör 1. 75 TL üzeri kargo bedava. Henüz değerlendirilmemiş. İlk sen değerlendir. SİYAH BAYRAK AYNA (AMİR) 27-05-2021 ANKARA TAHMİNİ 26 Mayıs 2021 27 Mayıs 2021 admin 28-01-2021 DENİZ ALKIN ŞANLIURFA ALTILI GANYAN TAHMİNLERİ 28 Ocak 2021 admin BURAK ÇAKAR 23-02-2021 ADANA ALTILI TAHMİNİ 23 Şubat 2021 admin En Yeni Gönderiler. SİYAH BAYRAK AYNA (AMİR) 06-08-2022 ANKARA ALTILI TAHMİNİ ...1 Siyah Fırtına Joh-Hwan Düşebilecek Silahlar Düşebilecek Zırhlar Diğer Eşyalar Sahte Kıl ıç Kırmızı Göz Yay Bakır İşçiliği Yay Gümüş Kılıç Ejderha Plaka Zırh Zincir Kapşon Anka Şapkası Altın Ayakkabı Altın Bezeli Ayakkabı Altın Anahtar Gümüş Anahtar ...Bayrağında siyah renk bulunan ülkeler arasında yer alan Belçika'nın kullanmış olduğu bayrağı 23 Ocak 1831 tarihinden beri kullanılmaktadır. Bayrağın tasarımını ise Brüksel direnişi yapmıştır. Ülkenin bayrağında kırmızı şerit, siyah şerit ve sarı şerit yer almaktadır. papua-new-guinea-bayragi Papua Yeni GineJan 02, 2010 · sİyah bayrak ayna (amİr) 27-05-2021 ankara tahmİnİ 26 Mayıs 2021 27 Mayıs 2021 admin 28-01-2021 DENİZ ALKIN ŞANLIURFA ALTILI GANYAN TAHMİNLERİ Formula 1 ortası turuncu siyah-bayrak nedir ne anlama gelir? Formula 1 sezonunun 14. yarışının heyecanı Türkiye Grand Prix'sinde yaşanacak. Yarış severler ise, Formula 1'de ortası turuncu siyah-bayrak ne anlama gelir, ortası turuncu siyah-bayrak sallandığı zaman ne olur gibi araştırmalar yapıyor. Yarış heyecanı yarın yaşanacak!Formula 1 ortası turuncu siyah-bayrak nedir ne anlama gelir? Formula 1 sezonunun 14. yarışının heyecanı Türkiye Grand Prix'sinde yaşanacak. Yarış severler ise, Formula 1'de ortası turuncu siyah-bayrak ne anlama gelir, ortası turuncu siyah-bayrak sallandığı zaman ne olur gibi araştırmalar yapıyor. Yarış heyecanı yarın yaşanacak!Listen to Siyah Bayrak on Spotify. No.1 · Album · 2017 · 11 songs. Beyaz bayrak teslim olmak ise. Siyah bayrak savaşa devam demektir heralde. Emoji Ekle. Yorumla. Soran. +1 yıl. Ne demek istiyorki o zaman. Yorumla. Selimozen34.While listening to Siyah Bayrak song online, amplify your emotions through lyrics of the song. There are also options to choose your favorite artist No.1 , No1 , Can Bozok songs on Wynk. Download Mp3 Songs from all genres seamlessly with Wynk. Listen to Siyah Bayrak on Spotify. No.1 · Album · 2017 · 11 songs.Dijital Müzik MarketlerSpotify: https://open.spotify.com/album/1KF29eJMyRaOXcalVkN2UBiTunes: https://itunes.apple.com/us/album/siyah-bayrak/1323157626?uo=4&a...Dec 11, 2017 · About “Siyah Bayrak”. 9 Nisan 2018'de Hiphoplife'ın No.1 ile olan röportajında No. 1 albümden şu şekilde bahsediyor: Her zaman ki gibi albümün çoğunluğu zaten eski kayıtlardan ... Türk bayrağı, Türkiye Cumhuriyeti`nin ulusal bayrağıdır. 1982 Anayasasının 3. maddesine göre, "şekli kanunda belirtilen, beyaz ay yıldızlı al bayraktır." ... Siyah üçgen ise ...siyah bayrak, turkce rap, no1, siyonizm, paix7, anarsi, anarchie, voyage istanbul, fond d'écran du téléphone Dijital Müzik MarketlerSpotify: https://open.spotify.com/album/1KF29eJMyRaOXcalVkN2UBiTunes: https://itunes.apple.com/us/album/siyah-bayrak/1323157626?uo=4&a...Siyah Bayrak haberleri, bugüne ait güncel son dakika gelişmeleri için tıklayın! Siyah Bayrak ile ilgili tüm, video, fotoğraf, infografik ve flaş haberler GZT’de. papatyam (@siyah_bayrak_x) on TikTok | 0 Likes. 450 Fans. PAPATYAM🌼 Watch the latest video from papatyam (@siyah_bayrak_x). Hiphop ve Türkçe Rap'in kalbinin attığı sözlük.Jul 03, 2022 · Siyah Bayrak. Retweeted. MKemalBildiş. @KemalBildis_TC. ·. 15h. Twittera girmekte zorlanıyorum.Sabahtan beri ancak girebildim.Trol saldırıs altındayım.Hesabımı çökertmeye çalışıyorlar. Beni twitter da görmek isteyen tüm dostlardan Takip, RT, Fav ve nokta kadar dahi olsa yorum rica ediyorum. 1,891. Doğru 22 Lt Siyah Yelken Bayrak Ve Plaj Şemsiyesi Bidonu Doğru 22 Lt Siyah Yelken Bayrak Ve Plaj Şemsiyesi Bidonu . Ürün Ölçüsü: 47cm x 47cm. Delik Çapı Maksimum 3cm İçin Uygundur. Hazne kapasitesi maksimum 22 Lt'dir. Su ve Kum İle Doldurabilirsiniz. Kampanya fiyatından satılmak üzere 50 adetten fazla stok sunulmuştur. siyah bayrak - Ürün Tanıtımları - Gel.com.tr ®, bayrak Direkleri imalatı ve satışı, masa direği, makam direği satış, direk satın al - bayrak Direkleri imalatı ve satışı, masa direği, makam direği satış, direk satın al,Masaüstü Tekli Krom Bayrak Direği, Masaüstü İkili Krom Bayrak Direği, Masaüstü Üçlü Krom Bayrak Direği, Masaüstü Dörtlü Krom Bayrak ...Asilmeydan Siyah Beyaz Göktürk Bayrağı 17 Eski Türk Devletleri ve Türkiye Saten T Direk Masa Bayrağı 2'li 99,90 TL Satürn Masaüstü Siyah Göktürk Bayrağı Türk Bayrağı Ikili Pirinç Direk Masa Bayrak Seti papatyam (@siyah_bayrak_x) on TikTok | 0 Likes. 450 Fans. PAPATYAM🌼 Watch the latest video from papatyam (@siyah_bayrak_x). Mısır bayrağı, Mısır tarafından kullanılan bayrak. Üç renkli olan bayrak; kırmızı, beyaz ve siyah renklerden oluşan yatay üç şeritten oluşmaktadır. Bayrağın beyaz şeridinde Mısır arması yer almaktadır. Bayrağın şu andaki hâli 4 Ekim 1984'te kabul edilmiştir. papatyam (@siyah_bayrak_x) on TikTok | 0 Likes. 450 Fans. PAPATYAM🌼 Watch the latest video from papatyam (@siyah_bayrak_x). Bayrak imalat işleminin kullanım yerlerine göre iç ve dış mekanlardan yer almak üzere iki bölümde bulunmaktadır. Koni Kancası Bayrak ModeliKoni Kancası :Ürünlerimizin tamamı iç ortam ve dış ortamlarda kolaylıkla kullanılmaktadır. Ürün çeşitlerimiz mükemmel bir reklam ve tanıtım aracı olarak bulunmaktadır. Siyah Bayrak Retweeted Prof. Dr. Mustafa Çetiner @profdrcetiner · Jul 6 Bu memlekette cahillik hiç bu kadar kibirli, saldırgan ve hadsiz olmamıştı. Cahillik hiç bu kadar baş tacı edilmemişti. Bilgi hiç bu kadar önemsiz olmamıştı. Utanma duygusu hiç bu kadar görünmez hale gelmemişti… 756 12.4K 72.8K Topics to followSiyah Beyaz Bayrak Tabela Bu Bayrak Tabela, Otimsan tarafından özel olarak üretilmiştir. Işıksız Bayrak Tabeladır. İsterseniz led ışıklı bir şekilde sipariş verebilirsiniz… Mimari alanların iyi bir şekilde gelişmesi için alan tasarımı önem taşır. Alan tanımlanması gereken bir mekandır ve eski çağlardan günümüze kadar geçen evrede hem kişisel hem toplumsal ... isbul net kurumsal Siyah bayrak ne anlama gelir? - Bayrak sepeti,bayrak satışı,bayrak al,bayrak satış,bayrak satın al, Bayrak Fiyatları, Bayrakçı, bayrak sepeti,online bayrak satışı,Bayrakçı,Bayrak satışı makam direkleri,flama,Bayrak, Bayrak Fiyatı, Bayrak Fiyatları, Bayrak Satın al, Bayrak Satışı, Bayrak Satışları, Bayrak Bul, Bayrak Nerede, Bayrak Resimleri, Bayrak Yapan Firmalar ...SİYAH BAYRAK AYNA (AMİR) 27-05-2021 ANKARA TAHMİNİ 26 Mayıs 2021 27 Mayıs 2021 admin 28-01-2021 DENİZ ALKIN ŞANLIURFA ALTILI GANYAN TAHMİNLERİ 28 Ocak 2021 admin BURAK ÇAKAR 23-02-2021 ADANA ALTILI TAHMİNİ 23 Şubat 2021 admin En Yeni Gönderiler. SİYAH BAYRAK AYNA (AMİR) 06-08-2022 ANKARA ALTILI TAHMİNİ ...Söz: No.1 & HejaMüzik & Mix: No.1Saksafon: Deniz FelderYönetmen: Oğuzhan EjderoğluProdüksiyon: Goril Film (gorilfilm.com)Color Grading: MonomanDrone Operatör...BAYRAK. 1980 Yılında Bayrak pazarlaması ile ise başlayan Esen Bayrak, Bayrak-Flama alanında araştırma ve geliştirme yaparak sektörde daima kalite ve yeniliğin öncülüğünü yapmıştır. 1983 Yılında imalata başlayarak kendi ürettiği mamülü kendisi pazarlamıştır. Bayrakçılığı kalite açısından Avrupa ...Siyah bayrak ilk "resmi" görünümünü Paris'teki Invalides'teki işsizlerin gösterisinde yaptı. 9 Mart 1883 Marangozlar sendikası tarafından düzenlenen bir toplantı sırasında. Louise Michel, ilk kez, bir süpürgeye tutturulmuş eski siyah bir kombinezondan doğaçlama bir bayrak takıyor.Rüyada siyah bayrak görmek ne demek? Rüyasında yeşil bayrak görmek, hayırlı bir yolculuğa çıkılacağına işarettir.Beyaz bayraklar görmek, yağmura işarettir.Siyah bayraklar görmek, kıtlığa işaret olarak yorumlanır.Bir kadının rüyasında bayrak görmesi, kocasına işaret eder.Bazı yorumcular: Rüyada görülen siyah bayraklar, her tarafa yağacak olan çok ...Siyah Bayrak: No.1: Digital Media: 11: TR 2017-12-11; CritiqueBrainz Reviews No one has reviewed this release group yet. Be the first to write a review. Release group ... No.1 - Siyah Bayrak (Paranoyak Ve Sinirli Kafa, Fare İlacı ve daha fazlasını ücretsiz dinle. 11 parça (49:51). Dünyanın en büyük çevrimiçi kataloğuna sahip olan Last.fm'de daha fazla müzik, konser, video ve resim keşfetDoğru 22 Lt Siyah Yelken Bayrak Ve Plaj Şemsiyesi Bidonu Doğru 22 Lt Siyah Yelken Bayrak Ve Plaj Şemsiyesi Bidonu . Ürün Ölçüsü: 47cm x 47cm. Delik Çapı Maksimum 3cm İçin Uygundur. Hazne kapasitesi maksimum 22 Lt'dir. Su ve Kum İle Doldurabilirsiniz. Kampanya fiyatından satılmak üzere 50 adetten fazla stok sunulmuştur. Siyah Bayrak, ataturk, ayyildiz, black mustafa kemal, black, turkey, turkiye white, HD phone wallpaper; 2160x1920px 1Araba 1Ev Daewoo Nubira Oto Koltuk Koruyucu Kılıf Araba Araç Servis Kılıfı Siyah Bayrak Baskılı Ön Arka Set. 1Araba 1Ev. 134,90 TL. Satıcı: 1araba1ev. Puan 9,9. Kampanyaları Gör 1. 75 TL üzeri kargo bedava. Henüz değerlendirilmemiş. İlk sen değerlendir. Siyah bayrak ne anlama gelir Bayrakçılık, son yıllarda artan talebe karşılık; sektörün öncü kuruluşlarından biri haline gelmiştir. Siyah bayrak ne anlama gelir ölçüleri Firmamız bayrakçılıkta artan bu talep doğrultusunda; ham madde den üretimine kadar bir çok alanda modern bir tesis ile müşterilerimize, en kaliteli ve ...SİYAH BAYRAK AYNA (AMİR) 28-09-2020 BURSA ALTILI TAHMİNİ 27 Eylül 2020 27 Eylül 2020 admin En Yeni Gönderiler. CEM ARSLAN ve ekibi ile olan sureci. Burak Satıbol (@buraksatibol) adlı kişinin en son Tweetleri. 5 Aralik 2021Pazar Ücretsiz izmir Altili Ganyan Tahmini Değerli Üyelerimiz Sitemizin Açik Kalmasi. 19 Mart 2022. Söz: No.1 & HejaMüzik & Mix: No.1Saksafon: Deniz FelderYönetmen: Oğuzhan EjderoğluProdüksiyon: Goril Film (gorilfilm.com)Color Grading: MonomanDrone Operatör...Siyah Bayrak, ataturk, ayyildiz, black mustafa kemal, black, turkey, turkiye white, HD phone wallpaper; 2160x1920px siyah bayrak - Ürün Tanıtımları - Gel.com.tr ®, bayrak Direkleri imalatı ve satışı, masa direği, makam direği satış, direk satın al - bayrak Direkleri imalatı ve satışı, masa direği, makam direği satış, direk satın al,Masaüstü Tekli Krom Bayrak Direği, Masaüstü İkili Krom Bayrak Direği, Masaüstü Üçlü Krom Bayrak Direği, Masaüstü Dörtlü Krom Bayrak ...siyah bayrak 2022-06-04T12:24:56+03:00 Yayınland ı Yazar: Emine Kılıçaslan, Kategori: Edebiyat > Deneme Aklıma zorum var aklımdan. Zerrelerime işlediğim her acının, yansıması bir silüet taşıyorum. Gülüşe yaydığımız sima, zehrini içime akıtır. Çürütüyor ...Siyah bayrak ilk "resmi" görünümünü Paris'teki Invalides'teki işsizlerin gösterisinde yaptı. 9 Mart 1883 Marangozlar sendikası tarafından düzenlenen bir toplantı sırasında. Louise Michel, ilk kez, bir süpürgeye tutturulmuş eski siyah bir kombinezondan doğaçlama bir bayrak takıyor.Söz: No.1 & HejaMüzik & Mix: No.1Saksafon: Deniz FelderYönetmen: Oğuzhan EjderoğluProdüksiyon: Goril Film (gorilfilm.com)Color Grading: MonomanDrone Operatör...Siyah Bayrak, ataturk, ayyildiz, black mustafa kemal, black, turkey, turkiye white, HD phone wallpaper; 2160x1920px Bu makalede, biz-cekti tarif İmparatorluk, ya da Halk damga vergisi, siyah-sarı-beyaz bayrak kimin olduğunu, ne zaman ortaya çıktı ve ne olduğunu şahsında. Hangi değeri bir bayrağı vardır? Bir Bayrak herhangi bir ülkenin derin sakral anlam ve öz ifade, onun kimlik. Bu resmi sembolü devletinin temsil eden bir milleti anlatan ...SİYAH BAYRAK! - Ali EYCE. MOLOZ ÇEŞME! SİYAH BAYRAK! Yolumuz her yere düşüyor. Yaz kış demeden de her yere gidiyoruz. Bu mevsimde, havalar kapalı iken, soğuk kendini hissediyorken Çeşme'ye herhalde deniz keyfi yapmaya, güneşin tadını çıkarmaya gitmemişizdir. Çeşme'den çok şikâyet gelince, Çeşme'ye gitmek ...Limonata Yelken Bayrakları. Kayıt Ol; Giriş Yap; Şifremi Unuttum; Siparişlerim 0 Ürün - TL Kuveyt bayrağı, yeşil, beyaz, kırmızı, siyah, sarı ve Emirlik forsundan ibarettir. Bayrak asılış kuralına göre yeşil renk üste gelmelidir. Savaşları temsil eden siyah renk ise ...Estonya bayrağı, Estonya Cumhuriyeti tarafından kullanılan resmî bayrak. Ulusal Estonya bayrağı yatay eşit üç kısımdan meydana gelip, kısımlar yukarıdan aşağıya doğru mavi, siyah ve beyazdan oluşmaktadır. Normal boyutu 105 × 165'tir. İlk kez bu bayrak Tartu Üniversitesi'ndeki Estonya öğrenci topluluğunun kullanmaya başlamasıyla 1880'lerde ünlendi ve 1884'te ...Bayrak Dünya Simgeleri Vintage Özel Günler Tasarım Kolsuz Tişörtler Esprili Soyut Yazılı Pop-Punk Crop Top Tişört Rock Metal Pop Müzik K-Pop Müzik R&B & Soul Rap & Hip Hop Reggae DJ Ünlü Kişi Süper Kahramanlar Film Yabancı Dizi Video Oyun ArabaHaas, "siyah bayrak" talebine açıklık getirdi Haas F1 takım patronu Gunther Steiner, Monaco'daki ilk antrenman seansında pilotlarına siyah bayrak sallanmasının ardından, onların gelecekte pit duvarından gösterilen mesajlara karşı daha dikkatli olmalarını umuyor.SİYAH BAYRAK AYNA (AMİR) 30-06-2022 İZMİR ALTILI TAHMİNİ 30 Haziran 2022 admin OPİA. Hani artık bugünde olmaz ise ne zaman yarış kazanır inanın hiç bilmiyorum. Bulabileceği en uygun MAİDEN grupta koşuyor. Elle tutulur şu rakip olur diyebileceğim tek bir tane isim yok. Yani müzmin MAİDEN atı ve kazanmama konusunda ısrar ...siyah bayrak 2022-06-04T12:24:56+03:00 Yayınland ı Yazar: Emine Kılıçaslan, Kategori: Edebiyat > Deneme Aklıma zorum var aklımdan. Zerrelerime işlediğim her acının, yansıması bir silüet taşıyorum. Gülüşe yaydığımız sima, zehrini içime akıtır. Çürütüyor ...Sudan bayrağı günümüzde kullanılan hâli ile 20 Mayıs 1970 tarihinde göndere çekilerek ülkenin resmî bayrağı olmuştur. Bayrak Pan-Arap renkleri olan yeşil, siyah, beyaz ve kırmızıdan oluşmaktadır. Yatay olarak üç eşit şerit halinde bayrağı bölen yeşil, beyaz ve siyah renklerin üzerine, göndere çekilen tarafta ...Bayrak direği yapımdan. Yangın tesisatlarında ve yangın merdiveni yapımında. Alt yapı çalışmalarında. Kireçlenme yapmadıklarından içme suyu tesisatlarında. İnşaatlarda, Çevre aydınlatma işlerinde ve elektrik direklerinde. Havalandırma tesisatlarında. Denizcilik alanındaki. Isı değişimine karşı dayanımı nedeni ile ...Siyah bayrak ne anlama gelir? - Bayrak sepeti,bayrak satışı,bayrak al,bayrak satış,bayrak satın al, Bayrak Fiyatları, Bayrakçı, bayrak sepeti,online bayrak satışı,Bayrakçı,Bayrak satışı makam direkleri,flama,Bayrak, Bayrak Fiyatı, Bayrak Fiyatları, Bayrak Satın al, Bayrak Satışı, Bayrak Satışları, Bayrak Bul, Bayrak Nerede, Bayrak Resimleri, Bayrak Yapan Firmalar ...Osmanlı Tuğrası Siyah Bayrağı Modelleri Nedir? :Osmanlı Tuğrası Siyah Bayrağı modelleri için yukarıdaki ürünleri ziyaret edebilirsiniz. Ayrıca benzer Osmanlı TuğrSiyah Bayrak Sansür Dog Killa, Sativa, Ritalin, Lyrica Şükredersin dicka, dinlerken Nie Wieder Arabada sopa, şoförüm Donatella Çocuklar gezer gece mahallede real belaSudan bayrağı günümüzde kullanılan hâli ile 20 Mayıs 1970 tarihinde göndere çekilerek ülkenin resmî bayrağı olmuştur. Bayrak Pan-Arap renkleri olan yeşil, siyah, beyaz ve kırmızıdan oluşmaktadır. Yatay olarak üç eşit şerit halinde bayrağı bölen yeşil, beyaz ve siyah renklerin üzerine, göndere çekilen tarafta ...Rüyanın Geniş Tabiri Rüyada kırmızı siyah bayrak görmek işlerinin açılacağına, ticaretinin genişleyeceğine, başarıları ile tanınacağına, sağlığının ve enerjisinin yenileneeğine, kendisini eksik ve yetersiz gördüğü konularda iş hayatına atılmak yerine ilk önce açığını kapatma yoluna gideceğine, güç ve kudret sahibi kimse haline geleceğine ...No.1 Siyah bayrak albümü indir. Ekim 29, 2017 No 1 album indir , No 1 siyah bayrak albümü indir , No 1 siyah bayrak indir , No.1 , no.1 siyah bayrak , siyah bayrak , siyah bayrak albümü. No.1 aylar öncesinden haberini verdiği siyah bayrak albümünü toparladık. Içindekiler.Rüyada bayrak görmek, Şeref, iyi hal , yücelik ve izzettir. Elinde bayrak taşımak şeref ve makamla, Elindeki bayrağı düşürmek makamını yitir. 30 Temmuz 2022 18:19. ... siyah bayraklar da kitliga isaret eder. Hayrete düsmüs ve ne yapacagini sasirmis bir kimsenin rüyada asker bayragi görmesi, o kimsenin saskinliktan kurtulup ...Yılların efsanesi E30’u İstanbul Park’ta hakkını vererek test ettik. Hırçınlığı yüzünden biraz drift yapmış olduk, siyah bayrak yedik. Bakalım S54 motor E30 ... Siyah Bayrak Detayli Crop Bluz ve diğer tüm Tommy Hilfiger ürünlerini yakından inceleyip, satın almak için tıklayın! Sitemiz üzerinden saat 15:00'a kadar vermiş olduğunuz siparişiniz aynı gün anlaşmalı olduğumuz kargo firmasına teslim edilecektir.Mar 21, 2021 · Siyah Bayrak Lyrics: Siyah Bayrak / Hm, Sansür / Dog Killa, Sativa, Ritalin, Lyrica / Şükredersin dicka, dinlerken Nie Wieder / Arabada sopa, şoförüm Donatella / Çocuklar gezer gece ... 🚩bayrak 8 🇬🇧ülke bayrağı 258 🏴󠁧󠁢󠁥󠁮󠁧󠁿alt bölümü bayrak 3 cilt tonu 👴 Normal cilt tonu 👴🏻 açık cilt tonu 👴🏼 orta açık cilt tonu 👴🏽 orta cilt tonu 👴🏾 ... (varyant semboller içermeyen temel Emoji) ve ⬛︎ (metin stili, üzerinde siyah beyaz semboller bazı eski ...Etiketler: Ucuz Camaro siyah bayrak, 90X150 CM boyutu, % 100% polyester, , Yüksek Kalite Camaro siyah bayrak, 90X150 CM boyutu, % 100% polyester, , Çin Bayraklar, afişler ve Aksesuarları Tedarikçiler. Adet 1 Sepete ekle facebook twitter linkedin pinterest ...Siyah Bayrak şiirini okumak için tıklayın. Hüseyin Balcı 2 tarafından yazılan Siyah Bayrak şiiri ve diğer şair Hüseyin Balcı 2 şiirleri Antoloji.com'da.Listen to Siyah Bayrak on Spotify. Murat Köseoglu · Song · 1998. siyah bayrak, turkce rap, no1, siyonizm, paix7, anarsi, anarchie, voyage istanbul, fond d'écran du téléphone SİYAH BAYRAK! - Ali EYCE. MOLOZ ÇEŞME! SİYAH BAYRAK! Yolumuz her yere düşüyor. Yaz kış demeden de her yere gidiyoruz. Bu mevsimde, havalar kapalı iken, soğuk kendini hissediyorken Çeşme'ye herhalde deniz keyfi yapmaya, güneşin tadını çıkarmaya gitmemişizdir. Çeşme'den çok şikâyet gelince, Çeşme'ye gitmek ...Siyah Resimler En güzel siyah arkaplanlı resimleri sizler için sunuyoruz. İndirmek istediğiniz resime sağ tıklayın resmi farklı kaydet seçeneğine tıklayın ve pc nizde belirlediğiniz klasöre kaydedin. Siyah Resimler Resimleri indirmek için resimin...Black Sokak Erkek Siyah Bayrak Nasa Baskılı Oversize Tshirt. Black sokak Erkek Siyah Bayrak Nasa Baskılı Oversize Tshirt; Bu üründen en fazla 10 adet sipariş verilebilir. 10 adetin üzerindeki siparişleri Trendyol iptal etme hakkını saklı tutar. Kampanya fiyatından satılmak üzere 100 adetten fazla stok sunulmuştur. Bu makalede, biz-cekti tarif İmparatorluk, ya da Halk damga vergisi, siyah-sarı-beyaz bayrak kimin olduğunu, ne zaman ortaya çıktı ve ne olduğunu şahsında. Hangi değeri bir bayrağı vardır? Bir Bayrak herhangi bir ülkenin derin sakral anlam ve öz ifade, onun kimlik. Bu resmi sembolü devletinin temsil eden bir milleti anlatan ...Jan 02, 2010 · sİyah bayrak ayna (amİr) 27-05-2021 ankara tahmİnİ 26 Mayıs 2021 27 Mayıs 2021 admin 28-01-2021 DENİZ ALKIN ŞANLIURFA ALTILI GANYAN TAHMİNLERİ Siyah Bayrak: No.1: Digital Media: 11: TR 2017-12-11; CritiqueBrainz Reviews No one has reviewed this release group yet. Be the first to write a review. Release group ... Yarısı siyah, yarısı beyaz bayrak Pilot numarası ile gösterilir ve sportmenlik dışı davranış olduğu konusunda uyarı verilir. Pilot bu uyarıyı dikkate almazsa bu bayrağı siyah bayrak takip edebilir....Bayrak Dünya Simgeleri Vintage Özel Günler Tasarım Kolsuz Tişörtler Esprili Soyut Yazılı Pop-Punk Crop Top Tişört Rock Metal Pop Müzik K-Pop Müzik R&B & Soul Rap & Hip Hop Reggae DJ Ünlü Kişi Süper Kahramanlar Film Yabancı Dizi Video Oyun ArabaSiyah Bayrak haberleri, bugüne ait güncel son dakika gelişmeleri için tıklayın! Siyah Bayrak ile ilgili tüm, video, fotoğraf, infografik ve flaş haberler GZT’de. SİYAH BAYRAK AYNA (AMİR) 20-06-2022 BURSA ALTILI TAHMİNİ 19 Haziran 2022 admin At yarişı tahmini, at yarışı, BANKO, Kazandıran tahminler, King in the izmir, Tjk BABA AYBARS Bugüne dek bir yarış koşan ve koşmuş olduğu yarışında o gün için mücadele ettiği rakiplerinin nerelere geldiğini hepimiz biliyoruz.English German - Deutsch French - Français Spanish - Español Italian - Italiano Swedish - SvenskaSiyah Bayrak Retweeted Prof. Dr. Mustafa Çetiner @profdrcetiner · Jul 6 Bu memlekette cahillik hiç bu kadar kibirli, saldırgan ve hadsiz olmamıştı. Cahillik hiç bu kadar baş tacı edilmemişti. Bilgi hiç bu kadar önemsiz olmamıştı. Utanma duygusu hiç bu kadar görünmez hale gelmemişti… 756 12.4K 72.8K Topics to followSpotify: https://open.spotify.com/album/1KF29eJMyRaOXcalVkN2UBApple Music: https://itunes.apple.com/us/album/siyah-bayrak/1323157626Söz: No.1Müzik: FaraziMıx...Siyah Bayrak Retweeted Prof. Dr. Mustafa Çetiner @profdrcetiner · Jul 6 Bu memlekette cahillik hiç bu kadar kibirli, saldırgan ve hadsiz olmamıştı. Cahillik hiç bu kadar baş tacı edilmemişti. Bilgi hiç bu kadar önemsiz olmamıştı. Utanma duygusu hiç bu kadar görünmez hale gelmemişti… 756 12.4K 72.8K Topics to followSiyah bayrak GittiGidiyor'da! siyah bayrak modelleri, siyah bayrak özellikleri ve markaları en uygun fiyatları ile GittiGidiyor'da! -Siyah Bayrak, ataturk, ayyildiz, black mustafa kemal, black, turkey, turkiye white, HD phone wallpaper; 2160x1920px ⬇ Depositphotos'tan uygun fiyatlı Siyah bayrak stok vektörlerini indirin Profesyonel vektör grafikleri ve küçük resimler Milyonlarca telifsiz vektör çizim, hızlı resim aramaAlmanya Bayrağı. 12 Aralık 2017 admin 0 yorum alman bayrağı, alman bayrağı png, alman bayrağı renkleri, almanya bayrağı, almanya bayrağı anlamı, almanya bayrağı png, almanya bayrağı renkleri, almanya bayrağı tarihçesi, almanya tarihi, bayrak, bayraklar, german bayrağı, germany bayrağı, siyah kırmızı sarı bayrak ...Dec 11, 2017 · Listen to Siyah Bayrak by No.1 on Apple Music. Stream songs including "Paranoyak Ve Sinirli Kafa", "Fare İlacı" and more. sim kart degisikligi banka Mısır bayrağı, Mısır tarafından kullanılan bayrak. Üç renkli olan bayrak; kırmızı, beyaz ve siyah renklerden oluşan yatay üç şeritten oluşmaktadır. Bayrağın beyaz şeridinde Mısır arması yer almaktadır. Bayrağın şu andaki hâli 4 Ekim 1984'te kabul edilmiştir. Mısır ile ilgili bu madde taslak seviyesindedir ...Siyah rengin psikolojisine göre, kişinin kendisi ve dış dünya arasında bir bariyer yaratır, duygularını ve hislerini korurken rahatlık sağlar, kırılganlıkları ve kendine güvensizliğini gizler. Siyah renk, ışığın yokluğunda ortaya çıkar ve renkleri absorbe edip emer. Biz buna "karanlık" diye bir isim veriyoruz ...Mavi Siyah Damalı, Mavi Siyah Damalı Yelken Bayrakları, Mavi Siyah Damalı Cadde Bayrak, Mavi Siyah Damalı Yelken Bayrak, Tümünü Gör 96,90 TL 'den başlayan fiyatlar 21.07.2022 Günü Kargoya Verilir Havale / Eft / Kredi Kartı Ödeme 3 D Güvenli Ödeme Kolaylığı Sadece Bayrak - 96,90 TL Bayrak+Demiraksam - 153,00 TLÜlke bayrakları listesi. Birleşmiş Milletler bayrağı. Aşağıda Birleşmiş Milletler tarafından bağımsız, egemen bir ülke olarak kabul edilen ve Birleşmiş Milletler'de üyeliği bulunan 193 ülke ile egemen bir devlet olarak kabul edilen ancak BM'de üyeliği bulunmayan Vatikan dahil toplam 194 ülkenin bayrağı ile yine ayrıca ...Filename E:\Torrent Upload\CD Rip\No.1\No.1 - Siyah Bayrak\05 Dünya Gül Bana.wav Peak level 67.7 % Extraction speed 4.0 X Track quality 100.0 % Test CRC C7F5475B Copy CRC C7F5475B Copy OK Track 6 Filename E:\Torrent Upload\CD Rip\No.1\No.1 - Siyah Bayrak\06 Ölüm Çizgisi.wav Peak level 67.0 % Extraction speed 3.6 X Track quality 99.9 % Test ... Mısır bayrağı, Mısır tarafından kullanılan bayrak. Üç renkli olan bayrak; kırmızı, beyaz ve siyah renklerden oluşan yatay üç şeritten oluşmaktadır. Bayrağın beyaz şeridinde Mısır arması yer almaktadır. Bayrağın şu andaki hâli 4 Ekim 1984'te kabul edilmiştir. Sudan bayrağı günümüzde kullanılan hâli ile 20 Mayıs 1970 tarihinde göndere çekilerek ülkenin resmî bayrağı olmuştur. Bayrak Pan-Arap renkleri olan yeşil, siyah, beyaz ve kırmızıdan oluşmaktadır. Yatay olarak üç eşit şerit halinde bayrağı bölen yeşil, beyaz ve siyah renklerin üzerine, göndere çekilen tarafta ...Bayat Boyu Siyah Bayrak En Uygun, Kaliteli ve Sağlam Bayat Boyu Siyah Bayrak Arıyorsanız bayrak.com.tr İle Kolayca Satın Alabilirsiniz. Bayat Boyu Siyah Bayrak. Kayıt Ol; Giriş Yap; Şifremi Unuttum; Bayrak.com.tr. Siparişlerim 0 Ürün - TL . Özel Bayrak ve Flamalar.Siyah Bayrak: No.1: Digital Media: 11: TR 2017-12-11; CritiqueBrainz Reviews No one has reviewed this release group yet. Be the first to write a review. Release group ... Çeçen Bayrak Figürlü Benzinli Çakmak (Siyah) CKM 005 Çakmakta benzin yoktur. Uygun özellikli çakmak benzini doldurularak kullanılmalıdır. Desenler çakmağın her iki yönünede lazer ile uygulanmıştır Uzun süre kullanabileceğiniz yüksek kaliteye sahiptir.Söz: No.1 & HejaMüzik & Mix: No.1Saksafon: Deniz FelderYönetmen: Oğuzhan EjderoğluProdüksiyon: Goril Film (gorilfilm.com)Color Grading: MonomanDrone Operatör...Siyah Resimler En güzel siyah arkaplanlı resimleri sizler için sunuyoruz. İndirmek istediğiniz resime sağ tıklayın resmi farklı kaydet seçeneğine tıklayın ve pc nizde belirlediğiniz klasöre kaydedin. Siyah Resimler Resimleri indirmek için resimin...Siyah bayrak GittiGidiyor'da! siyah bayrak modelleri, siyah bayrak özellikleri ve markaları en uygun fiyatları ile GittiGidiyor'da! -Listen to Siyah Bayrak on Spotify. Murat Köseoglu · Song · 1998. Kırmızı Üzeri Siyah Puanlı Flama Bayrak (2 m.) Puantiyeli flama bayrak ebatı 2 m. Kaliteli parlak kağıt malzemeden elde edilmiştir. Baskı kalitesi 1.sınıf. Parlak ve canlı renkler. Puantiyeli flama bayrak 2 metre uzunluğunda sıralı bir şekilde dizili toplam 10 adet bayraktan oluşmaktadır.Yılların efsanesi E30’u İstanbul Park’ta hakkını vererek test ettik. Hırçınlığı yüzünden biraz drift yapmış olduk, siyah bayrak yedik. Bakalım S54 motor E30 ... iStock'taki Siyah Bayrak stok video, 4k ve diğer HD çekimleri keşfedin. Başka bir yerde bulamayacağınız harika video çekimleri.Siyah Türk Bayrağı Resimleri. Merhaba arkadaşlar bu yazımızda Siyah arkaplana ve rengi siyah beyaz renge sahip olan Türk bayrağı resimlerini paylaşıyorum. En güzel siyah beyaz Türk bayrağı resimlerini büyük boyutta farklı çözünürlükte fotoğraflardır.No.1'in Kron1k albümünün ikinci şarkısı Siyah Bayrak sizlerle. No.1 - Siyah Bayrak şarkı sözlerleri:SansürDogg killa sativa ritalin lyrcaŞükredersin dickkaa ... Siyah Bayrak Lyrics: Siyah Bayrak / Hm, Sansür / Dog Killa, Sativa, Ritalin, Lyrica / Şükredersin dicka, dinlerken Nie Wieder / Arabada sopa, şoförüm Donatella / Çocuklar gezer gece ...Rüyada siyah bayrak görmek ne demek? Rüyasında yeşil bayrak görmek, hayırlı bir yolculuğa çıkılacağına işarettir.Beyaz bayraklar görmek, yağmura işarettir.Siyah bayraklar görmek, kıtlığa işaret olarak yorumlanır.Bir kadının rüyasında bayrak görmesi, kocasına işaret eder.Bazı yorumcular: Rüyada görülen siyah bayraklar, her tarafa yağacak olan çok ...No.1'in Kron1k albümünün ikinci şarkısı Siyah Bayrak sizlerle. No.1 - Siyah Bayrak şarkı sözlerleri:SansürDogg killa sativa ritalin lyrcaŞükredersin dickkaa ... ttb bayrak - ttb bayrak - Bayrak sepeti,bayrak satışı,bayrak al,bayrak satış,bayrak satın al, Bayrak Fiyatları, Bayrakçı, bayrak sepeti,online bayrak satışı,Bayrakçı,Bayrak satışı makam direkleri,flama,Bayrak, Bayrak Fiyatı, Bayrak Fiyatları, Bayrak Satın al, Bayrak Satışı, Bayrak Satışları, Bayrak Bul, Bayrak Nerede, Bayrak Resimleri, Bayrak Yapan Firmalar, Bayrak ... logitech g700 Siyah bayrak ne anlama gelir Bayrakçılık, son yıllarda artan talebe karşılık; sektörün öncü kuruluşlarından biri haline gelmiştir. Siyah bayrak ne anlama gelir ölçüleri Firmamız bayrakçılıkta artan bu talep doğrultusunda; ham madde den üretimine kadar bir çok alanda modern bir tesis ile müşterilerimize, en kaliteli ve ...Jan 02, 2010 · sİyah bayrak ayna (amİr) 27-05-2021 ankara tahmİnİ 26 Mayıs 2021 27 Mayıs 2021 admin 28-01-2021 DENİZ ALKIN ŞANLIURFA ALTILI GANYAN TAHMİNLERİ Aug 04, 2022 · Siyah bayrak tahmin Siyah bayrak tahmin1 kg zeytin (yeni mahsul olgunlaşmamış eti kalın, çekirdeği küçük, morumsu sert siyah zeytin) gr kalın tuz (kaya tuzu) ml zeytinyağı ml sıkılmış limon suyu gr toz şeker 1 kg zeytine eklenen malzemeleri Gram/ Mililitre (cc) olarak yapmak istemeyenler için ölçü her biri için yarım su ... Haas, "siyah bayrak" talebine açıklık getirdi Haas F1 takım patronu Gunther Steiner, Monaco'daki ilk antrenman seansında pilotlarına siyah bayrak sallanmasının ardından, onların gelecekte pit duvarından gösterilen mesajlara karşı daha dikkatli olmalarını umuyor.siyah bayrak gösterilmeliydi.'' Fabio Quartararo, Yamaha Factory Racing Photo by: Gold and Goose / Motorsport Images ''Yani, kendimi tehlikeye attığım doğru. Aynı zamanda geçtiğimiz hafta olanları düşündüğünüzde, siyah bayrak gösterilmesi doğru ...SİYAH BAYRAK! - Ali EYCE. MOLOZ ÇEŞME! SİYAH BAYRAK! Yolumuz her yere düşüyor. Yaz kış demeden de her yere gidiyoruz. Bu mevsimde, havalar kapalı iken, soğuk kendini hissediyorken Çeşme'ye herhalde deniz keyfi yapmaya, güneşin tadını çıkarmaya gitmemişizdir. Çeşme'den çok şikâyet gelince, Çeşme'ye gitmek ...No.1'in Kron1k albümünün ikinci şarkısı Siyah Bayrak sizlerle. No.1 - Siyah Bayrak şarkı sözlerleri:SansürDogg killa sativa ritalin lyrcaŞükredersin dickkaa ... Jan 02, 2010 · sİyah bayrak ayna (amİr) 27-05-2021 ankara tahmİnİ 26 Mayıs 2021 27 Mayıs 2021 admin 28-01-2021 DENİZ ALKIN ŞANLIURFA ALTILI GANYAN TAHMİNLERİ Siyah Bayrak, ataturk, ayyildiz, black mustafa kemal, black, turkey, turkiye white, HD phone wallpaper; 2160x1920px Aug 04, 2022 · Siyah bayrak tahmin Siyah bayrak tahmin1 kg zeytin (yeni mahsul olgunlaşmamış eti kalın, çekirdeği küçük, morumsu sert siyah zeytin) gr kalın tuz (kaya tuzu) ml zeytinyağı ml sıkılmış limon suyu gr toz şeker 1 kg zeytine eklenen malzemeleri Gram/ Mililitre (cc) olarak yapmak istemeyenler için ölçü her biri için yarım su ... Birbirinden güzel siyah arkaplanlı HD resimler burada. En güzel siyah arkaplanlı resim galerisi burada umarım beğenirsiniz. Burada paylaştığımız resimler 2012'nin en yeni karanlık siyah arkaplan resimleridir. Resimleri indirmek için resimin üzerinde sağ tıklayıp ( Resmi Farklı Kaydet ) seçeneğine tıklayıp kaydediyoruz.Asilmeydan Siyah Beyaz Göktürk Bayrağı 17 Eski Türk Devletleri ve Türkiye Saten T Direk Masa Bayrağı 2'li 99,90 TL Satürn Masaüstü Siyah Göktürk Bayrağı Türk Bayrağı Ikili Pirinç Direk Masa Bayrak Seti Çeçen Bayrak Figürlü Benzinli Çakmak (Siyah) CKM 005 Çakmakta benzin yoktur. Uygun özellikli çakmak benzini doldurularak kullanılmalıdır. Desenler çakmağın her iki yönünede lazer ile uygulanmıştır Uzun süre kullanabileceğiniz yüksek kaliteye sahiptir.SİYAH BAYRAK! - Ali EYCE. MOLOZ ÇEŞME! SİYAH BAYRAK! Yolumuz her yere düşüyor. Yaz kış demeden de her yere gidiyoruz. Bu mevsimde, havalar kapalı iken, soğuk kendini hissediyorken Çeşme'ye herhalde deniz keyfi yapmaya, güneşin tadını çıkarmaya gitmemişizdir. Çeşme'den çok şikâyet gelince, Çeşme'ye gitmek ...Siyah Bayrak haberleri, bugüne ait güncel son dakika gelişmeleri için tıklayın! Siyah Bayrak ile ilgili tüm, video, fotoğraf, infografik ve flaş haberler GZT’de. 68 olaylarının kırkıncı yılında, bir sembol olarak siyah bayrak...Siyah Bayrak, ataturk, ayyildiz, black mustafa kemal, black, turkey, turkiye white, HD phone wallpaper; 2160x1920px Bayrak ürünlerini bayrak.com.tr ile kaliteli çeşitli Türk bayrağı, Plaj, Yelken ve özel yapım bayrakları bayrakçı ile Kolay ve Hızlıca Satın Alabilirsiniz Beko Yelken Bayrak, Bolu Lokanta Dükkan Önü Bayrak, Alfa Romeo Plaj Bayrağı, Romania Dubalı Bayrak, Tarsus İdman Yurdu Çerçeveli Resimler, Dağ İncir Kuşu Yelken Bayrak, Tela Önlük Olta Bayrak, Karadeniz Ereğli ...sİyah ayrak ayna (amİr) 05-08-2022 bursa altili tahmİnİ alİ osman efendİoĞlu 05-08-2022 bursa altili tahmİnİ sİyah bayrak ayna (amİr) 05-08-2022 İstanbul altili tahmİnİ sİyah bayrak ayna (amİr) 04-08-2022 kocaelİ altili tahmİnİ oĞuz ayhan 04-08-2022 kocaelİ altili tahmİnİ← sİyah bayrak ayna (amİr) 04-08-2022 kocaelİ altili tahmİnİ Bunları da sevebilirsiniz SİYAH BAYRAK AYNA (AMİR) GULFSTREAM PARK 26-03-2020 GÜNÜN ÇİFTESİDoğru 22 Lt Siyah Yelken Bayrak Ve Plaj Şemsiyesi Bidonu Doğru 22 Lt Siyah Yelken Bayrak Ve Plaj Şemsiyesi Bidonu . Ürün Ölçüsü: 47cm x 47cm. Delik Çapı Maksimum 3cm İçin Uygundur. Hazne kapasitesi maksimum 22 Lt'dir. Su ve Kum İle Doldurabilirsiniz. Kampanya fiyatından satılmak üzere 50 adetten fazla stok sunulmuştur. Bayrak imalat işleminin kullanım yerlerine göre iç ve dış mekanlardan yer almak üzere iki bölümde bulunmaktadır. Koni Kancası Bayrak ModeliKoni Kancası :Ürünlerimizin tamamı iç ortam ve dış ortamlarda kolaylıkla kullanılmaktadır. Ürün çeşitlerimiz mükemmel bir reklam ve tanıtım aracı olarak bulunmaktadır. Listen to Siyah Bayrak on Spotify. No.1 · Album · 2017 · 11 songs. Jan 02, 2010 · sİyah bayrak ayna (amİr) 27-05-2021 ankara tahmİnİ 26 Mayıs 2021 27 Mayıs 2021 admin 28-01-2021 DENİZ ALKIN ŞANLIURFA ALTILI GANYAN TAHMİNLERİ Bayrağında siyah renk bulunan ülkeler arasında yer alan Belçika'nın kullanmış olduğu bayrağı 23 Ocak 1831 tarihinden beri kullanılmaktadır. Bayrağın tasarımını ise Brüksel direnişi yapmıştır. Ülkenin bayrağında kırmızı şerit, siyah şerit ve sarı şerit yer almaktadır. papua-new-guinea-bayragi Papua Yeni GineHiphop ve Türkçe Rap'in kalbinin attığı sözlük.Spotify: https://open.spotify.com/album/1KF29eJMyRaOXcalVkN2UBApple Music: https://itunes.apple.com/us/album/siyah-bayrak/1323157626Söz: No.1Müzik: FaraziMıx...Aug 03, 2022 · SİYAH BAYRAK AYNA (AMİR) 05-08-2022 İSTANBUL ALTILI TAHMİNİ. 4 Ağustos 2022 admin. DOLYA VOROVSKAYA Gücünün kesinlikle bence sınırları yok. Koşmuş olduğu yarışlarında daha hala kendisini tam bulmuş değil. Her geçen gün kendisini. Devam. ANA SAYFA TAHMİNLER. Siyah Bayrak: No.1: Digital Media: 11: TR 2017-12-11; CritiqueBrainz Reviews No one has reviewed this release group yet. Be the first to write a review. Release group ... Rüyada siyah bayrak görmek ne demek? Rüyasında yeşil bayrak görmek, hayırlı bir yolculuğa çıkılacağına işarettir.Beyaz bayraklar görmek, yağmura işarettir.Siyah bayraklar görmek, kıtlığa işaret olarak yorumlanır.Bir kadının rüyasında bayrak görmesi, kocasına işaret eder.Bazı yorumcular: Rüyada görülen siyah bayraklar, her tarafa yağacak olan çok ...Jan 02, 2010 · sİyah bayrak ayna (amİr) 27-05-2021 ankara tahmİnİ 26 Mayıs 2021 27 Mayıs 2021 admin 28-01-2021 DENİZ ALKIN ŞANLIURFA ALTILI GANYAN TAHMİNLERİ Rüyada siyah bayrak görmek ne demek? Rüyasında yeşil bayrak görmek, hayırlı bir yolculuğa çıkılacağına işarettir.Beyaz bayraklar görmek, yağmura işarettir.Siyah bayraklar görmek, kıtlığa işaret olarak yorumlanır.Bir kadının rüyasında bayrak görmesi, kocasına işaret eder.Bazı yorumcular: Rüyada görülen siyah bayraklar, her tarafa yağacak olan çok ...Doğru 22 Lt Siyah Yelken Bayrak Ve Plaj Şemsiyesi Bidonu Doğru 22 Lt Siyah Yelken Bayrak Ve Plaj Şemsiyesi Bidonu . Ürün Ölçüsü: 47cm x 47cm. Delik Çapı Maksimum 3cm İçin Uygundur. Hazne kapasitesi maksimum 22 Lt'dir. Su ve Kum İle Doldurabilirsiniz. Kampanya fiyatından satılmak üzere 50 adetten fazla stok sunulmuştur. Siyah Bayrak. 1,051 likes · 25 talking about this. Tüm dinler içerisinde ama özellikle Kuran ı Kerim Işığında şeytan ve şeytaniler hakkında. Şeytaniler ve ibadetleri hakkında net bilgiler ve... BLACK BEARD KORSAN BAYRAK TACTICAL PATCH -SİYAH-BEYAZ 49,00 TL ISG AIRSOFT MAMA SAYS TACTICAL PATCH -SİYAH-BEYAZ 49,00 TL ISG AIRSOFT BÜYÜK PARABELLUM TACTICAL PATCH -SİYAH-BEYAZ-KIRMIZI 49,00 TL ISG AIRSOFT ...Yelken Bayrağı Siyah Bidon 22 litre Plaj Bayrağı Bidonu Ürün Garantisi veya Ömrü: Kullanm ve Hava Şartlarından Etkilendiği İçin Hiçbir Garantisi Yoktur Yelken Bayrağı Siyah Bidon İndirim 75x200 Olta Bayrak (Yelken Bayrak) Yükseklik 3 metre Boyu İndirim 75x250 Olta Bayrak (Yelken Bayrak) Yükseklik 3,5 metre Boyu İndirimJul 03, 2022 · Siyah Bayrak. Retweeted. MKemalBildiş. @KemalBildis_TC. ·. 15h. Twittera girmekte zorlanıyorum.Sabahtan beri ancak girebildim.Trol saldırıs altındayım.Hesabımı çökertmeye çalışıyorlar. Beni twitter da görmek isteyen tüm dostlardan Takip, RT, Fav ve nokta kadar dahi olsa yorum rica ediyorum. 1,891. Anaokulu Dubalı Bayraklar En Uygun, Kaliteli ve Sağlam Anaokulu Dubalı Bayraklar Arıyorsanız bayrak.com.tr İle Kolayca Satın Alabilirsiniz.1 Siyah Fırtına Joh-Hwan Düşebilecek Silahlar Düşebilecek Zırhlar Diğer Eşyalar Sahte Kıl ıç Kırmızı Göz Yay Bakır İşçiliği Yay Gümüş Kılıç Ejderha Plaka Zırh Zincir Kapşon Anka Şapkası Altın Ayakkabı Altın Bezeli Ayakkabı Altın Anahtar Gümüş Anahtar ...Mavi Siyah Damalı, Mavi Siyah Damalı Yelken Bayrakları, Mavi Siyah Damalı Cadde Bayrak, Mavi Siyah Damalı Yelken Bayrak, Tümünü Gör 96,90 TL 'den başlayan fiyatlar 21.07.2022 Günü Kargoya Verilir Havale / Eft / Kredi Kartı Ödeme 3 D Güvenli Ödeme Kolaylığı Sadece Bayrak - 96,90 TL Bayrak+Demiraksam - 153,00 TLDijital Müzik MarketlerSpotify: https://open.spotify.com/album/1KF29eJMyRaOXcalVkN2UBiTunes: https://itunes.apple.com/us/album/siyah-bayrak/1323157626?uo=4&a... Bayrak fiyatları ve özelliklerini karşılaştır kategori & marka ayrıştırması ile en uygun . Bayrak fiyat avantajını yakala! Cimri.com'da senin için 196 adet Bayrak ürünü bulduk. Bayrak kategorisinde en favori ve diğer kategorilerinden birini tercip edip filtre seçimleriyle birlikte Bayrak mağaza fiyatları ve Bayrak ürün ... Bayrak imalat işleminin kullanım yerlerine göre iç ve dış mekanlardan yer almak üzere iki bölümde bulunmaktadır. Koni Kancası Bayrak ModeliKoni Kancası :Ürünlerimizin tamamı iç ortam ve dış ortamlarda kolaylıkla kullanılmaktadır. Ürün çeşitlerimiz mükemmel bir reklam ve tanıtım aracı olarak bulunmaktadır. siyah bayrak, turkce rap, no1, siyonizm, paix7, anarsi, anarchie, voyage istanbul, fond d'écran du téléphone Siyah Beyaz Damalı Bayrak Çeşitleri Siyah Beyaz Damalı Bayrak Çeşitleri En Uygun, Kaliteli ve Sağlam Siyah Beyaz Damalı Bayrak Çeşitleri Arıyorsanız bayrak.com.tr İle Kolayca Satın Alabilirsiniz. Siyah Beyaz Damalı Bayrak Çeşitleri Kayıt Ol Giriş Yap Şifremi Unuttum Bayrak.com.tr Bayrak.com.tr Siparişlerim0 Ürün - TL Özel Bayrak ve FlamalarJan 02, 2010 · sİyah bayrak ayna (amİr) 27-05-2021 ankara tahmİnİ 26 Mayıs 2021 27 Mayıs 2021 admin 28-01-2021 DENİZ ALKIN ŞANLIURFA ALTILI GANYAN TAHMİNLERİ siyah bayrak fiyatı,sitemizden aldığınızda daha uyguna gelecektir siyah bayrak fiyatları Bayrak, bir ülkeyi, bir kurumu, bir örgütü veya bir topluluğu simgeleyen genelde kumaştan yapılan ve direğe asılan bir nesnedir. siyah bayrak ölçüsü siyah bayrak Bayraklar ilk yıllarda sadece sinyalleşme için kullanılmıştır.siyah bayrak - Ürün Tanıtımları - Gel.com.tr ®, bayrak Direkleri imalatı ve satışı, masa direği, makam direği satış, direk satın al - bayrak Direkleri imalatı ve satışı, masa direği, makam direği satış, direk satın al,Masaüstü Tekli Krom Bayrak Direği, Masaüstü İkili Krom Bayrak Direği, Masaüstü Üçlü Krom Bayrak Direği, Masaüstü Dörtlü Krom Bayrak ...HT MARIN Sealux Işıksız Bayrak Direği Alt.siyah 35cm yorumlarını inceleyin, Trendyol'a özel indirimli fiyata satın alın. Aug 04, 2022 · Siyah bayrak tahmin Siyah bayrak tahmin1 kg zeytin (yeni mahsul olgunlaşmamış eti kalın, çekirdeği küçük, morumsu sert siyah zeytin) gr kalın tuz (kaya tuzu) ml zeytinyağı ml sıkılmış limon suyu gr toz şeker 1 kg zeytine eklenen malzemeleri Gram/ Mililitre (cc) olarak yapmak istemeyenler için ölçü her biri için yarım su ... Formula 1 ortası turuncu siyah-bayrak nedir ne anlama gelir? Formula 1 sezonunun 14. yarışının heyecanı Türkiye Grand Prix'sinde yaşanacak. Yarış severler ise, Formula 1'de ortası turuncu siyah-bayrak ne anlama gelir, ortası turuncu siyah-bayrak sallandığı zaman ne olur gibi araştırmalar yapıyor. Yarış heyecanı yarın yaşanacak!Filename E:\Torrent Upload\CD Rip\No.1\No.1 - Siyah Bayrak\05 Dünya Gül Bana.wav Peak level 67.7 % Extraction speed 4.0 X Track quality 100.0 % Test CRC C7F5475B Copy CRC C7F5475B Copy OK Track 6 Filename E:\Torrent Upload\CD Rip\No.1\No.1 - Siyah Bayrak\06 Ölüm Çizgisi.wav Peak level 67.0 % Extraction speed 3.6 X Track quality 99.9 % Test ... Mar 21, 2021 · Siyah Bayrak Lyrics: Siyah Bayrak / Hm, Sansür / Dog Killa, Sativa, Ritalin, Lyrica / Şükredersin dicka, dinlerken Nie Wieder / Arabada sopa, şoförüm Donatella / Çocuklar gezer gece ... Siyah bayrak tahmin Siyah beyaz şal Xece herdem kimdir Album Kim Biliyor, Xece Herdem Qobuz: download and Discover more music, concerts, videos, and pictures with the largest catalogue online at website 10/12/ · Listen free to No.1 - Siyah Bayrak (Paranoyak Ve Sinirli Kafa, Fare İlacı and more). 11 tracks (). ...Siyah Bayrak. 1,051 likes · 25 talking about this. Tüm dinler içerisinde ama özellikle Kuran ı Kerim Işığında şeytan ve şeytaniler hakkında. Şeytaniler ve ibadetleri hakkında net bilgiler ve... Dec 11, 2017 · Listen to Siyah Bayrak by No.1 on Apple Music. Stream songs including "Paranoyak Ve Sinirli Kafa", "Fare İlacı" and more. Siyah Beyaz Damalı Bayrak Çeşitleri Siyah Beyaz Damalı Bayrak Çeşitleri En Uygun, Kaliteli ve Sağlam Siyah Beyaz Damalı Bayrak Çeşitleri Arıyorsanız bayrak.com.tr İle Kolayca Satın Alabilirsiniz. Siyah Beyaz Damalı Bayrak Çeşitleri Kayıt Ol Giriş Yap Şifremi Unuttum Bayrak.com.tr Bayrak.com.tr Siparişlerim0 Ürün - TL Özel Bayrak ve FlamalarSiyah+bayrak GittiGidiyor'da! siyah+bayrak modelleri, siyah+bayrak özellikleri ve markaları en uygun fiyatları ile GittiGidiyor'da! -Black Sokak Erkek Siyah Bayrak Nasa Baskılı Oversize Tshirt. Black sokak Erkek Siyah Bayrak Nasa Baskılı Oversize Tshirt; Bu üründen en fazla 10 adet sipariş verilebilir. 10 adetin üzerindeki siparişleri Trendyol iptal etme hakkını saklı tutar. Kampanya fiyatından satılmak üzere 100 adetten fazla stok sunulmuştur. 11 Aralık 2017. no 1 - siyah bayrak no 1 - siyah bayrak albümü no 1 - siyah bayrak albümü dinle no 1 - siyah bayrak albümü indir no 1 - siyah bayrak full albüm no 1 - tekel mavisi no 1 - tekel mavisi dinle no 1 - tekel mavisi full no 1 - tekel mavisi indir no 1 - tekel mavisi sözleri. Cevaplar: 0.Siyah bayrak ilk "resmi" görünümünü Paris'teki Invalides'teki işsizlerin gösterisinde yaptı. 9 Mart 1883 Marangozlar sendikası tarafından düzenlenen bir toplantı sırasında. Louise Michel, ilk kez, bir süpürgeye tutturulmuş eski siyah bir kombinezondan doğaçlama bir bayrak takıyor.Siyah Bayrak, ataturk, ayyildiz, black mustafa kemal, black, turkey, turkiye white, HD phone wallpaper; 2160x1920px Yarısı siyah, yarısı beyaz bayrak Pilot numarası ile gösterilir ve sportmenlik dışı davranış olduğu konusunda uyarı verilir. Pilot bu uyarıyı dikkate almazsa bu bayrağı siyah bayrak takip edebilir....Black Sokak Erkek Siyah Bayrak Nasa Baskılı Oversize Tshirt. Black sokak Erkek Siyah Bayrak Nasa Baskılı Oversize Tshirt; Bu üründen en fazla 10 adet sipariş verilebilir. 10 adetin üzerindeki siparişleri Trendyol iptal etme hakkını saklı tutar. Kampanya fiyatından satılmak üzere 100 adetten fazla stok sunulmuştur. HT MARIN Sealux Işıksız Bayrak Direği Alt.siyah 35cm yorumlarını inceleyin, Trendyol'a özel indirimli fiyata satın alın. Osmanlı Tuğrası Siyah Bayrağı Modelleri Nedir? :Osmanlı Tuğrası Siyah Bayrağı modelleri için yukarıdaki ürünleri ziyaret edebilirsiniz. Ayrıca benzer Osmanlı TuğrMısır bayrağı, Mısır tarafından kullanılan bayrak. Üç renkli olan bayrak; kırmızı, beyaz ve siyah renklerden oluşan yatay üç şeritten oluşmaktadır. Bayrağın beyaz şeridinde Mısır arması yer almaktadır. Bayrağın şu andaki hâli 4 Ekim 1984'te kabul edilmiştir. Mısır ile ilgili bu madde taslak seviyesindedir ...Çeçen Bayrak Figürlü Benzinli Çakmak (Siyah) CKM 005 Çakmakta benzin yoktur. Uygun özellikli çakmak benzini doldurularak kullanılmalıdır. Desenler çakmağın her iki yönünede lazer ile uygulanmıştır Uzun süre kullanabileceğiniz yüksek kaliteye sahiptir.No.1'in Kron1k albümünün ikinci şarkısı Siyah Bayrak sizlerle. No.1 - Siyah Bayrak şarkı sözlerleri:SansürDogg killa sativa ritalin lyrcaŞükredersin dickkaa ... Etiketler: Ucuz Camaro siyah bayrak, 90X150 CM boyutu, % 100% polyester, , Yüksek Kalite Camaro siyah bayrak, 90X150 CM boyutu, % 100% polyester, , Çin Bayraklar, afişler ve Aksesuarları Tedarikçiler. Adet 1 Sepete ekle facebook twitter linkedin pinterest ...Koni Kancası En Uygun, Kaliteli ve Sağlam Koni Kancası Arıyorsanız bayrak.com.tr İle Kolayca Satın Alabilirsiniz. Koni Kancası ... Yelken Bayrağı Siyah Bidon. 54,40TL + Kdv. Konvoy Bayrağı fiyatları Özel Araç Konvoy Bayrak. 8,50TL + Kdv. Özel Saten Güneşlik Perde. 238,00TL + Kdv.No.1'in Kron1k albümünün ikinci şarkısı Siyah Bayrak sizlerle. No.1 - Siyah Bayrak şarkı sözlerleri:SansürDogg killa sativa ritalin lyrcaŞükredersin dickkaa ... Etiketler: Ucuz Camaro siyah bayrak, 90X150 CM boyutu, % 100% polyester, , Yüksek Kalite Camaro siyah bayrak, 90X150 CM boyutu, % 100% polyester, , Çin Bayraklar, afişler ve Aksesuarları Tedarikçiler. Adet 1 Sepete ekle facebook twitter linkedin pinterest ... tishoo storetelefon hoparlore su kactisquid game coin hangi borsadainstagram igtv video indirme